Land Of The Dead 2005 BRRip 720p [English_Latino]




The living dead have taken over the world, and the last humans live in a walled city to protect themselves as they come to grips with the situation.
----------------------------------------------------------
En esta nueva entrega el mundo tal y como lo conocía la Humanidad es sólo un recuerdo. Su lugar lo ocupa la pesadillesca co-existencia de nosotros -los vivos- y de los otros, los walkers (los muertos que andan). Los humanos sobreviven encerrados tras los muros de una ciudad fortificada mientras los muertos vivientes vagan por los extensos páramos extramuros. Los pocos ricos y poderosos que quedan tratan de mantener la ilusión de que viven igual que antes dentro de las exclusivas torres de Fiddler"s Green, el último bastión de la clase dominante. Por encima de todos ellos, ricos y pobres, manda un puñado de implacables oportunistas dirigido por Kaufman, que controlan los negocios legítimos y los ilegítimos. La misión de conseguir comida y suministros esenciales, así como los raros objetos de lujo que codician los habitantes de Fiddler"s Green, está en manos de un grupo de endurecidos mercenarios a las órdenes de Riley y su segundo al mando, Cholo. El grupo emprende misiones fuera de los límites de la ciudad con la seguridad que les ofrece su enorme vehículo armado, el Dead Reckoning. Estos mercenarios actúan movidos por la codicia; con el dinero que saquen quieren escapar. Pero la vida está cambiando dentro y fuera de los muros de la ciudadela. Dentro crece el desorden y la anarquía y fuera, el ejército de los muertos ha evolucionado y está aprendiendo a organizarse y comunicarse.

La Tierra De Los Muertos Vivientes (2005)
*Audio English + Español Latino

General
Format                                   : Matroska
Format version                           : Version 2
File size                                : 1.11 GiB
Duration                                 : 1h 36mn
Overall bit rate                         : 1 640 Kbps
Encoded date                             : UTC 2014-09-28 20:39:20
Writing application                      : mkvmerge v7.2.0 (\'On Every Street\') 64bit built on Sep 13 2014 15:52:10
Writing library                          : libebml v1.3.0 + libmatroska v1.4.1
DURATION                                 : 00:00:19.500000000
NUMBER_OF_FRAMES                         : 1
NUMBER_OF_BYTES                          : 104
_STATISTICS_WRITING_APP                  : mkvmerge v7.2.0 (\'On Every Street\') 64bit built on Sep 13 2014 15:52:10
_STATISTICS_WRITING_DATE_UTC             : 2014-09-28 20:39:20
_STATISTICS_TAGS                         : BPS DURATION NUMBER_OF_FRAMES NUMBER_OF_BYTES
Video

ID                                       : 1
Format                                   : AVC
Format/Info                              : Advanced Video Codec
Format profile                           : [email protected]
Format settings, CABAC                   : Yes
Format settings, ReFrames                : 4 frames
Codec ID                                 : V_MPEG4/ISO/AVC
Duration                                 : 1h 36mn
Bit rate                                 : 1 254 Kbps
Width                                    : 1 280 pixels
Height                                   : 544 pixels
Display aspect ratio                     : 2.35:1
Frame rate mode                          : Constant
Frame rate                               : 23.976 fps
Color space                              : YUV
Chroma subsampling                       : 4:2:0
Bit depth                                : 8 bits
Scan type                                : Progressive
Bits/(Pixel*Frame)                       : 0.075
Stream size                              : 848 MiB (75%)
Writing library                          : x264 core 142 r2479 dd79a61
Default                                  : Yes
Forced                                   : No
Audio #1
ID                                       : 2
Format                                   : AC-3
Format/Info                              : Audio Coding 3
Mode extension                           : CM (complete main)
Format settings, Endianness              : Big
Codec ID                                 : A_AC3
Duration                                 : 1h 36mn
Bit rate mode                            : Constant
Bit rate                                 : 192 Kbps
Channel(s)                               : 6 channels
Channel positions                        : Front: L C R, Side: L R, LFE
Sampling rate                            : 48.0 KHz
Bit depth                                : 16 bits
Compression mode                         : Lossy
Stream size                              : 133 MiB (12%)
Language                                 : English
Default                                  : Yes
Forced                                   : No
Audio #2
ID                                       : 3
Format                                   : AC-3
Format/Info                              : Audio Coding 3
Mode extension                           : CM (complete main)
Format settings, Endianness              : Big
Codec ID                                 : A_AC3
Duration                                 : 1h 36mn
Bit rate mode                            : Constant
Bit rate                                 : 192 Kbps
Channel(s)                               : 6 channels
Channel positions                        : Front: L C R, Side: L R, LFE
Sampling rate                            : 48.0 KHz
Bit depth                                : 16 bits
Compression mode                         : Lossy
Stream size                              : 133 MiB (12%)
Language                                 : Spanish
Default                                  : No
Forced                                   : No
Text
ID                                       : 4
Format                                   : UTF-8
Codec ID                                 : S_TEXT/UTF8
Codec ID/Info                            : UTF-8 Plain Text
Title                                    : Encoded By / Encodeado Por:  CALLIXTUS
Default                                  : Yes
Forced                                   : No



Comparte esta entrada

Land Of The Dead 2005 BRRip 720p [English_Latino]
Para poder comentar necesitas Registrarte. O ya tienes usuario?, Iniciar Sesión!
No hay comentarios. ¡Sé el primero!
Autor
Ver perfil de Callixtus Callixtus
Hombre Curioso Curioso  Seguir  Mensaje
0 115 4
Nuevo Mensaje
Para:
Titulo: